<?xml version="1.0" standalone="no"?>
<!DOCTYPE svg PUBLIC "-//W3C//DTD SVG 1.1//EN" "http://www.w3.org/Graphics/SVG/1.1/DTD/svg11.dtd" >
<svg xmlns="http://www.w3.org/2000/svg">
<metadata>Generated by IcoMoon</metadata>
<defs>
<font id="WebsimaIcon" horiz-adv-x="1024">
<font-face units-per-em="1024" ascent="960" descent="-64" />
<missing-glyph horiz-adv-x="1024" />
<glyph unicode="&#x20;" horiz-adv-x="512" d="" />
<glyph unicode="&#xe900;" glyph-name="arrow-down-noline" d="M572.328 174.365c-33.326-33.326-87.357-33.326-120.684 0l-426.65 426.65c-33.326 33.326-33.326 87.358 0 120.684s87.357 33.326 120.683 0l426.651-426.65c33.325-33.325 33.325-87.357 0-120.683zM999.007 721.635c33.324-33.326 33.324-87.357 0-120.683l-426.65-426.65c-33.325-33.326-87.357-33.326-120.683 0s-33.326 87.357 0 120.683l426.651 426.65c33.324 33.326 87.359 33.326 120.682 0z" />
<glyph unicode="&#xe901;" glyph-name="back" d="M373.729 206.662c25.576 12.784 56.675 2.423 69.462-23.153l39.982-79.967 172.224 344.447-172.224 344.446-39.982-79.964c-12.787-25.576-43.887-35.941-69.462-23.154s-35.941 43.887-23.154 69.462l86.29 172.581c8.769 17.54 26.697 28.62 46.308 28.62s37.539-11.080 46.308-28.62l230.106-460.217c7.29-14.575 7.29-31.732 0-46.311l-230.106-460.211c-8.769-17.541-26.697-28.621-46.308-28.621s-37.539 11.080-46.308 28.621l-86.29 172.581c-12.787 25.577-2.422 56.675 23.154 69.46zM690.176-58.526c-25.577 12.791-35.945 43.891-23.161 69.468l218.536 437.058-218.536 437.061c-12.784 25.576-2.416 56.675 23.161 69.462 25.569 12.787 56.669 2.422 69.46-23.154l230.106-460.215c7.29-14.576 7.29-31.729 0-46.308l-230.106-460.218c-12.791-25.569-43.891-35.939-69.46-23.153zM28.79 447.943c0 28.594 23.18 51.774 51.774 51.774h402.689c28.594 0 51.774-23.18 51.774-51.774s-23.18-51.774-51.774-51.774h-402.689c-28.594 0-51.774 23.181-51.774 51.774zM43.954 411.336c-20.219 20.219-20.219 52.999 0 73.217l172.581 172.581c20.219 20.219 53.001 20.219 73.22 0s20.219-53.001 0-73.22l-135.971-135.971 135.971-135.974c20.219-20.219 20.219-52.996 0-73.216s-53-20.219-73.22 0l-172.581 172.581z" />
<glyph unicode="&#xe902;" glyph-name="arrow-down-long" d="M512 959.999c-38.4 0-69.531-31.13-69.531-69.531v-884.937c0-38.401 31.13-69.531 69.531-69.531 38.399 0 69.529 31.13 69.529 69.531v884.937c0 38.4-31.13 69.531-69.529 69.531zM462.834-43.61c27.154-27.15 71.176-27.15 98.331 0l379.258 379.258c27.155 27.155 27.155 71.179 0 98.334s-71.179 27.155-98.329 0l-379.26-379.258c-27.154-27.155-27.154-71.179 0-98.334zM83.576 433.956c-27.154-27.155-27.154-71.179 0-98.329l379.258-379.258c27.154-27.155 71.176-27.155 98.331 0 27.155 27.15 27.155 71.174 0 98.329l-379.258 379.258c-27.154 27.155-71.178 27.155-98.331 0z" />
<glyph unicode="&#xe903;" glyph-name="desktop" d="M0 120.286c0 16.156 13.099 29.257 29.257 29.257h965.486c16.159 0 29.257-13.101 29.257-29.257 0-16.159-13.099-29.257-29.257-29.257h-965.486c-16.159 0-29.257 13.099-29.257 29.257zM168.846 746.456c-8.29 0-15.729-3.010-20.796-7.6-4.971-4.503-7.136-9.955-7.136-14.949v-414.453c0-4.994 2.164-10.445 7.136-14.951 5.066-4.588 12.506-7.598 20.796-7.598h686.27c8.289 0 15.729 3.011 20.796 7.598 4.971 4.506 7.136 9.956 7.136 14.951v414.453c0 4.995-2.165 10.446-7.136 14.949-5.067 4.59-12.507 7.6-20.796 7.6h-686.27zM108.765 782.223c16.383 14.841 38.036 22.748 60.081 22.748h686.27c22.042 0 43.696-7.906 60.079-22.748 16.481-14.929 26.366-35.831 26.366-58.316v-414.453c0-22.484-9.886-43.389-26.366-58.315-16.384-14.842-38.037-22.747-60.079-22.747h-686.27c-22.045 0-43.698 7.905-60.081 22.747-16.479 14.927-26.365 35.831-26.365 58.315v414.453c0 22.485 9.886 43.388 26.365 58.316z" />
<glyph unicode="&#xe904;" glyph-name="star" d="M454.359 905.082c11.787 19.963 33.192 33.144 57.674 33.144s45.887-13.181 57.504-32.833l0.17-0.311 121.69-209.003c9.419-15.958 24.874-27.502 43.146-31.558l0.443-0.082 236.372-51.199c30.311-6.725 52.641-33.377 52.641-65.244 0-17.125-6.448-32.743-17.049-44.56l0.055 0.063-161.141-180.299c-10.563-11.759-17.022-27.389-17.022-44.529 0-2.349 0.121-4.671 0.358-6.957l-0.024 0.286 24.432-240.644c0.217-2.019 0.34-4.361 0.34-6.732 0-36.866-29.886-66.753-66.753-66.753-9.738 0-18.988 2.085-27.33 5.834l0.422-0.17-221.352 97.392c-7.927 3.586-17.187 5.675-26.935 5.675s-19.008-2.089-27.356-5.845l0.421 0.17-221.285-97.459c-7.938-3.597-17.213-5.695-26.978-5.695-36.866 0-66.753 29.886-66.753 66.753 0 2.381 0.125 4.734 0.368 7.052l-0.025-0.289 24.432 240.644c0.213 2 0.334 4.321 0.334 6.67 0 17.14-6.459 32.77-17.077 44.591l0.054-0.062-161.141 180.366c-10.546 11.755-16.995 27.373-16.995 44.498 0 31.867 22.33 58.518 52.196 65.161l0.444 0.083 236.372 51.199c18.716 4.139 34.17 15.683 43.42 31.33l0.17 0.311 121.757 209.003z" />
<glyph unicode="&#xe905;" d="M525.83 308.272c26.575 25.774 62.164 40.157 99.186 40.088 33.403-0.065 65.594-11.891 91.015-33.207 25.511 21.261 57.782 32.992 91.225 32.927 37.032-0.074 72.571-14.6 99.050-40.487 13.095-12.789 23.49-28.073 30.584-44.947 7.089-16.872 10.727-34.999 10.699-53.3-0.031-18.303-3.727-36.418-10.873-53.269-7.134-16.827-17.565-32.058-30.674-44.797-0.017-0.017-0.036-0.033-0.053-0.050l-170.643-167.282c-10.821-10.608-28.137-10.598-38.946 0.019l-170.949 167.944c-0.007 0.007-0.017 0.017-0.024 0.024-13.078 12.789-23.464 28.065-30.543 44.931-7.086 16.875-10.718 35.001-10.68 53.307s3.737 36.413 10.89 53.264c7.148 16.846 17.603 32.096 30.741 44.837l-0.005-0.002zM624.908 292.76c-22.535 0.045-44.192-8.711-60.367-24.398-7.81-7.574-14.020-16.633-18.27-26.644-4.248-10.015-6.451-20.776-6.47-31.652s2.136-21.648 6.346-31.678c4.21-10.027 10.388-19.113 18.165-26.716l0.050-0.050 151.54-148.873 151.363 148.381c7.805 7.576 14.015 16.636 18.26 26.649s6.441 20.776 6.46 31.652c0.017 10.875-2.143 21.646-6.358 31.673-4.212 10.027-10.39 19.111-18.172 26.708-16.115 15.764-37.761 24.618-60.305 24.661-22.518 0.045-44.164-8.699-60.331-24.365l-11.353-11.153c-10.832-10.639-28.194-10.62-39.005 0.045l-11.317 11.165c-16.108 15.721-37.718 24.546-60.231 24.587l-0.005 0.007z" />
<glyph unicode="&#xe906;" glyph-name="article" d="M29.973 930.006c-19.177-19.221-29.973-45.245-29.973-72.409v-702.152c0-121.184 98.239-219.422 219.422-219.422h643.698c88.852 0 160.88 72.029 160.88 160.88v643.653c0 56.544-45.838 102.382-102.382 102.382h-131.653v14.658c0 56.544-45.838 102.382-102.382 102.382h-585.198c-0.010 0-0.020 0-0.030 0-28.265 0-53.855-11.454-72.382-29.973zM719.748 23.791h-500.327c-72.71 0-131.653 58.944-131.653 131.653v0 702.152c0 8.071 6.543 14.614 14.614 14.614v0h585.199c8.071 0 14.614-6.543 14.614-14.614v0-760.693c0-25.628 6.143-50.687 17.554-73.112zM789.919 755.17h131.653c8.071 0 14.614-6.543 14.614-14.614v-643.653l-0.002-0.093c-1-39.532-33.359-71.271-73.131-71.271s-72.132 31.74-73.133 71.363v658.267zM233.991 682.058c0 24.237 19.648 43.885 43.885 43.885v0h234.035c24.237 0 43.885-19.648 43.885-43.885s-19.648-43.885-43.885-43.885v0h-234.035c-24.237 0-43.885 19.648-43.885 43.885v0zM233.991 447.978c0 24.237 19.648 43.885 43.885 43.885v0h234.035c24.237 0 43.885-19.648 43.885-43.885s-19.648-43.885-43.885-43.885v0h-234.035c-24.237 0-43.885 19.648-43.885 43.885v0zM233.991 213.943c0 24.237 19.648 43.885 43.885 43.885v0h234.035c24.237 0 43.885-19.648 43.885-43.885s-19.648-43.885-43.885-43.885v0h-234.035c-24.237 0-43.885 19.648-43.885 43.885v0z" />
<glyph unicode="&#xe907;" glyph-name="event" d="M418.807 161.018c23.853 23.85 56.804 38.603 93.2 38.603 72.797 0 131.81-59.014 131.81-131.81 0-36.4-14.754-69.355-38.61-93.207v0c-23.853-23.85-56.804-38.603-93.2-38.603-72.797 0-131.81 59.014-131.81 131.81 0 36.4 14.754 69.355 38.61 93.207v0zM512.030 138.784c-0.309 0.005-0.674 0.008-1.039 0.008-39.198 0-70.975-31.776-70.975-70.975s31.776-70.975 70.975-70.975c0.366 0 0.73 0.003 1.094 0.008l-0.055-0.001c38.748 0.586 69.936 32.134 69.936 70.967s-31.187 70.381-69.88 70.966l-0.055 0.001zM76.056 67.809c0 16.798 13.617 30.416 30.416 30.416v0h304.153c16.798 0 30.416-13.617 30.416-30.416s-13.617-30.416-30.416-30.416v0h-304.153c-16.798 0-30.416 13.617-30.416 30.416v0zM582.959 67.809c0 16.798 13.617 30.416 30.416 30.416v0h304.153c16.798 0 30.416-13.617 30.416-30.416s-13.617-30.416-30.416-30.416v0h-304.153c-16.798 0-30.416 13.617-30.416 30.416v0zM258.563 899.169c-11.196 0-20.271-9.076-20.271-20.271v0-405.544c0-11.196 9.076-20.271 20.271-20.271h152.077c0.003 0 0.006 0 0.009 0 8.4 0 16.006-3.405 21.511-8.911l79.871-79.886 79.871 79.886c5.505 5.506 13.109 8.911 21.511 8.911 0.003 0 0.006 0 0.009 0h152.077c11.196 0 20.271 9.076 20.271 20.271v0 405.544c-0.009 11.193-9.080 20.263-20.271 20.271h-506.935zM201.231 936.245c15.208 15.208 35.83 23.755 57.333 23.755h506.934c44.791 0 81.103-36.31 81.103-81.103v0-405.544c0-44.791-36.31-81.103-81.103-81.103v0h-139.485l-92.463-92.478c-5.505-5.511-13.114-8.92-21.519-8.92s-16.014 3.409-21.519 8.92v0l-92.463 92.463h-139.485c-44.791 0-81.103 36.31-81.103 81.103 0 0.005 0 0.011 0 0.016v-0.001 405.544c0 21.504 8.547 42.125 23.755 57.333zM329.538 777.507c0 16.798 13.617 30.416 30.416 30.416v0h304.153c16.798 0 30.416-13.617 30.416-30.416s-13.617-30.416-30.416-30.416v0h-304.153c-16.798 0-30.416 13.617-30.416 30.416v0zM329.538 625.43c0 16.798 13.617 30.416 30.416 30.416v0h152.077c16.798 0 30.416-13.617 30.416-30.416s-13.617-30.416-30.416-30.416v0h-152.077c-16.798 0-30.416 13.617-30.416 30.416v0z" />
<glyph unicode="&#xe908;" glyph-name="whitepaper" d="M165.556 896c-41.24 0-74.672-33.431-74.672-74.672v-640c0-41.231 33.424-74.656 74.656-74.656 0.006 0 0.011 0 0.017 0h319.999c17.673 0 32-14.326 32-32s-14.326-32-32-32v0h-320c-0.005 0-0.010 0-0.016 0-76.577 0-138.656 62.078-138.656 138.656v640c0 76.586 62.085 138.672 138.672 138.672v0h640c17.673 0 32-14.326 32-32v0-266.672c0-17.673-14.326-32-32-32s-32 14.326-32 32v0 234.672h-608zM67.493 279.392c25.094 25.090 59.758 40.608 98.047 40.608 0.006 0 0.011 0 0.017 0h373.327c17.673 0 32-14.326 32-32s-14.326-32-32-32v0h-373.327c-41.24 0-74.672-33.431-74.672-74.672v0c0-17.673-14.326-32-32-32s-32 14.326-32 32v0c0.001 38.294 15.519 72.963 40.609 98.065v0zM622.884 150.625c5.79 5.789 13.789 9.369 22.624 9.369s16.834-3.58 22.624-9.369l137.375-137.375 137.376 137.376c5.748 5.557 13.59 8.983 22.231 8.983 17.673 0 32-14.326 32-32 0-8.641-3.425-16.483-8.991-22.24l0.008 0.009-159.999-159.999c-5.79-5.789-13.789-9.369-22.624-9.369s-16.834 3.58-22.624 9.369l-159.999 159.999c-5.789 5.79-9.369 13.789-9.369 22.624s3.58 16.834 9.369 22.624v0zM805.507 480c17.673 0 32-14.326 32-32v0-479.999c0-17.673-14.326-32-32-32s-32 14.326-32 32v0 479.999c0 17.673 14.326 32 32 32v0z" />
<glyph unicode="&#xe909;" glyph-name="arrow-up-right" d="M20.84-43.126c-12.876 12.88-20.839 30.67-20.839 50.321s7.964 37.441 20.839 50.321l880.79 880.72c12.961 13.406 31.105 21.73 51.196 21.73 39.31 0 71.176-31.866 71.176-71.176 0-20.089-8.324-38.234-21.71-51.176l-880.812-880.739c-12.88-12.876-30.67-20.839-50.321-20.839s-37.441 7.964-50.321 20.839v0zM951.88 959.090c39.31 0 71.176-31.866 71.176-71.176v0-754.882c0-39.31-31.866-71.176-71.176-71.176s-71.176 31.866-71.176 71.176v0 754.882c0 39.31 31.866 71.176 71.176 71.176v0zM125.609 887.914c0 39.31 31.866 71.176 71.176 71.176v0h754.954c39.31 0 71.176-31.866 71.176-71.176s-31.866-71.176-71.176-71.176v0h-754.882c-39.31 0-71.176 31.866-71.176 71.176v0z" />
<glyph unicode="&#xe90a;" glyph-name="online" d="M447.008 513.209c16.623 16.623 39.587 26.905 64.952 26.905 50.731 0 91.856-41.125 91.856-91.856 0-25.365-10.282-48.33-26.905-64.952v0c-16.623-16.623-39.587-26.905-64.952-26.905-50.731 0-91.856 41.125-91.856 91.856 0 25.365 10.282 48.33 26.905 64.952v0zM511.961 461.365c-7.25 0-13.128-5.878-13.128-13.128s5.878-13.128 13.128-13.128v0c7.25 0 13.128 5.878 13.128 13.128s-5.878 13.128-13.128 13.128v0zM298.602 661.653c54.859 56.16 131.348 90.986 215.969 90.986 166.685 0 301.811-135.126 301.811-301.811 0-84.602-34.81-161.074-90.889-215.874l-0.058-0.056c-54.464-53.729-129.315-86.912-211.916-86.912-166.685 0-301.811 135.126-301.811 301.811 0 82.572 33.159 157.399 86.888 211.892l-0.034-0.035zM512.039 671.337c-0.881 0.012-1.921 0.020-2.963 0.020-123.204 0-223.081-99.877-223.081-223.081s99.877-223.081 223.081-223.081c1.042 0 2.082 0.007 3.121 0.022l-0.158-0.002c121.923 1.671 220.118 100.9 220.118 223.061s-98.195 221.39-219.961 223.060l-0.158 0.002zM716.738 61.929c21.741 0 39.365-17.624 39.365-39.365v0-0.512c0-21.741-17.624-39.365-39.365-39.365s-39.365 17.624-39.365 39.365v0 0.551c0 21.741 17.624 39.365 39.365 39.365v0zM881.441 193.171c21.741 0 39.365-17.624 39.365-39.365v0-0.512c0-21.741-17.624-39.365-39.365-39.365s-39.365 17.624-39.365 39.365v0 0.512c0 21.741 17.624 39.365 39.365 39.365v0zM972.295 382.634c21.741 0 39.365-17.624 39.365-39.365v0-0.512c0-21.741-17.624-39.365-39.365-39.365s-39.365 17.624-39.365 39.365v0 0.512c0 21.741 17.624 39.365 39.365 39.365v0zM972.295 592.607c21.741 0 39.365-17.624 39.365-39.365v0-0.512c0-21.741-17.624-39.365-39.365-39.365s-39.365 17.624-39.365 39.365v0 0.512c0 21.741 17.624 39.365 39.365 39.365v0zM881.441 782.072c21.741 0 39.365-17.624 39.365-39.365v0-0.551c0-21.741-17.624-39.365-39.365-39.365s-39.365 17.624-39.365 39.365v0 0.551c0 21.741 17.624 39.365 39.365 39.365v0zM716.738 913.275c21.741 0 39.365-17.624 39.365-39.365v0-0.512c0-21.741-17.624-39.365-39.365-39.365s-39.365 17.624-39.365 39.365v0 0.512c0 21.741 17.624 39.365 39.365 39.365v0zM511.921 960.001c21.741 0 39.365-17.624 39.365-39.365v0-0.512c0-21.741-17.624-39.365-39.365-39.365s-39.365 17.624-39.365 39.365v0 0.512c0 21.741 17.624 39.365 39.365 39.365v0zM307.223 913.275c21.741 0 39.365-17.624 39.365-39.365v0-0.512c0-21.741-17.624-39.365-39.365-39.365s-39.365 17.624-39.365 39.365v0 0.512c0 21.741 17.624 39.365 39.365 39.365v0zM142.559 782.072c21.741 0 39.365-17.624 39.365-39.365v0-0.551c0-21.741-17.624-39.365-39.365-39.365s-39.365 17.624-39.365 39.365v0 0.551c0 21.741 17.624 39.365 39.365 39.365v0zM51.705 592.607c21.741 0 39.365-17.624 39.365-39.365v0-0.512c0-21.741-17.624-39.365-39.365-39.365s-39.365 17.624-39.365 39.365v0 0.512c0 21.741 17.624 39.365 39.365 39.365v0zM51.705 382.634c21.741 0 39.365-17.624 39.365-39.365v0-0.512c0-21.741-17.624-39.365-39.365-39.365s-39.365 17.624-39.365 39.365v0 0.512c0 21.741 17.624 39.365 39.365 39.365v0zM142.559 193.171c21.741 0 39.365-17.624 39.365-39.365v0-0.512c0-21.741-17.624-39.365-39.365-39.365s-39.365 17.624-39.365 39.365v0 0.512c0 21.741 17.624 39.365 39.365 39.365v0zM307.223 61.929c21.741 0 39.365-17.624 39.365-39.365v0-0.512c0-21.741-17.624-39.365-39.365-39.365s-39.365 17.624-39.365 39.365v0 0.551c0 21.741 17.624 39.365 39.365 39.365v0zM511.921 15.242c21.741 0 39.365-17.624 39.365-39.365v0-0.512c0-21.741-17.624-39.365-39.365-39.365s-39.365 17.624-39.365 39.365v0 0.512c0 21.741 17.624 39.365 39.365 39.365v0z" />
<glyph unicode="&#xe90b;" glyph-name="mobile" d="M319.699 887.886c-14.769 0-29.716-6.423-41.309-19.176-11.697-12.867-18.785-30.994-18.785-50.533v-740.358c0-19.539 7.088-37.664 18.785-50.533 11.594-12.753 26.54-19.175 41.309-19.175h384.599c14.769 0 29.718 6.422 41.31 19.175 11.697 12.868 18.786 30.994 18.786 50.533v740.358c0 19.538-7.089 37.666-18.786 50.533-11.592 12.753-26.541 19.176-41.31 19.176h-384.599zM225.032 917.219c24.47 26.917 58.435 42.78 94.668 42.78h384.599c36.233 0 70.198-15.863 94.67-42.78 24.367-26.803 37.539-62.479 37.539-99.041v-740.358c0-36.561-13.172-72.239-37.539-99.039-24.471-26.916-58.436-42.781-94.67-42.781h-384.599c-36.233 0-70.198 15.865-94.668 42.781-24.366 26.8-37.539 62.479-37.539 99.039v740.358c0 36.562 13.173 72.239 37.539 99.041zM423.057 779.717c0 19.913 16.143 36.056 36.056 36.056h105.764c19.914 0 36.056-16.143 36.056-36.056s-16.142-36.056-36.056-36.056h-105.764c-19.913 0-36.056 16.143-36.056 36.056z" />
<glyph unicode="&#xe90c;" glyph-name="arrow-down-short" d="M23.071 503.699c30.762 30.762 80.635 30.762 111.397 0l377.533-377.534 377.533 377.534c30.759 30.762 80.636 30.762 111.396 0s30.759-80.636 0-111.397l-433.23-433.23c-30.762-30.759-80.636-30.759-111.397 0l-433.23 433.23c-30.762 30.762-30.762 80.636 0 111.397zM512-63.999c-43.502 0-78.769 35.265-78.769 78.769v866.461c0 43.503 35.266 78.769 78.769 78.769s78.769-35.266 78.769-78.769v-866.461c0-43.504-35.267-78.769-78.769-78.769z" />
<glyph unicode="&#xe90d;" d="M410.060 959.999c-61.444 0-120.373-24.41-163.822-67.857s-67.855-102.376-67.855-163.818c0-61.447 24.408-120.373 67.855-163.822s102.378-67.857 163.822-67.857c61.444 0 120.373 24.408 163.822 67.857s67.855 102.376 67.855 163.822c0 61.444-24.408 120.371-67.855 163.818s-102.378 67.857-163.822 67.857zM285.559 852.827c33.021 33.021 77.805 51.57 124.502 51.57s91.483-18.549 124.502-51.57c33.023-33.021 51.572-77.805 51.572-124.502s-18.549-91.483-51.572-124.504c-33.021-33.021-77.803-51.57-124.502-51.57s-91.483 18.552-124.502 51.57c-33.023 33.023-51.57 77.805-51.57 124.506s18.549 91.481 51.57 124.499zM183.585 241.199c33.018 33.018 77.805 51.572 124.502 51.572h25.485c15.355 0 27.803 12.445 27.803 27.803s-12.445 27.803-27.803 27.803h-25.485c-61.444 0-120.371-24.408-163.818-67.857s-67.857-102.373-67.857-163.818v-101.938c0-15.355 12.448-27.803 27.8-27.803s27.8 12.445 27.8 27.803v101.938c0 46.699 18.552 91.483 51.57 124.502l0.002-0.005z" />
<glyph unicode="&#xe90e;" glyph-name="instagram" d="M277.93 872.191c-104.997 0-190.119-85.106-190.143-190.097v-468.141c0-0.013 0-0.028 0-0.044 0-105.013 85.13-190.143 190.143-190.143h468.139c105.013 0 190.143 85.13 190.143 190.143 0 0.016 0 0.031 0 0.047v-0.003 468.095c0 0.013 0 0.028 0 0.044 0 105.013-85.13 190.143-190.143 190.143h-468.139zM81.423 878.598c50.29 50.293 119.764 81.399 196.505 81.402h468.14c153.484 0 277.908-124.424 277.908-277.908v0-468.139c0-0.013 0-0.028 0-0.044 0-153.484-124.424-277.908-277.908-277.908h-468.139c-153.484 0-277.908 124.424-277.908 277.908 0 0.016 0 0.031 0 0.047v-0.003 468.095c0 73.723 29.269 144.418 81.402 196.55zM356.875 603.191c39.713 39.707 94.572 64.266 155.168 64.266 121.203 0 219.457-98.255 219.457-219.457 0-60.606-24.569-115.475-64.289-155.19v0c-39.712-39.712-94.572-64.273-155.168-64.273-121.194 0-219.442 98.248-219.442 219.442 0 60.598 24.562 115.458 64.273 155.168v0zM512.044 579.67c-72.707 0-131.648-58.94-131.648-131.648s58.94-131.648 131.648-131.648v0c72.707 0 131.648 58.94 131.648 131.648s-58.94 131.648-131.648 131.648v0zM775.339 755.2c24.236 0 43.882-19.647 43.882-43.882v0-0.57c0-24.236-19.647-43.882-43.882-43.882s-43.882 19.647-43.882 43.882v0 0.57c0 24.236 19.647 43.882 43.882 43.882v0z" />
<glyph unicode="&#xe90f;" glyph-name="linkedin" d="M160.931 872.227c-40.388 0-73.134-32.728-73.159-73.113v-702.184c0.025-40.386 32.769-73.114 73.159-73.114h702.182c40.37 0.025 73.090 32.744 73.114 73.113v702.184c0 40.388-32.728 73.134-73.113 73.159h-702.184zM47.135 912.909c29.118 29.095 69.332 47.091 113.75 47.091 0.017 0 0.034 0 0.050 0h702.179c88.861-0.025 160.887-72.067 160.887-160.931v0-702.182c-0.025-88.845-72.042-160.862-160.884-160.887h-702.183c-88.865 0-160.906 72.026-160.931 160.884v702.184c0 42.701 16.941 83.604 47.135 113.798zM278.064 550.408c24.238 0 43.886-19.649 43.886-43.886v0-292.59c0-24.238-19.649-43.886-43.886-43.886s-43.886 19.649-43.886 43.886v0 292.59c0 24.238 19.649 43.886 43.886 43.886v0zM278.064 725.954c24.238 0 43.886-19.649 43.886-43.886v0-0.614c0-24.238-19.649-43.886-43.886-43.886s-43.886 19.649-43.886 43.886v0 0.614c0 24.238 19.649 43.886 43.886 43.886v0zM512.066 550.408c24.238 0 43.886-19.649 43.886-43.886v0-292.59c0-24.238-19.649-43.886-43.886-43.886s-43.886 19.649-43.886 43.886v0 292.59c0 24.238 19.649 43.886 43.886 43.886v0zM515.27 503.274c29.123 29.123 69.356 47.137 113.798 47.137 88.879 0 160.931-72.052 160.931-160.931 0-0.001 0-0.003 0-0.004v0-175.545c0-24.238-19.649-43.886-43.886-43.886s-43.886 19.649-43.886 43.886v0 175.545c-1.001 39.626-33.362 71.367-73.137 71.367s-72.135-31.741-73.135-71.274l-0.001-0.093c0-24.238-19.649-43.886-43.886-43.886s-43.886 19.649-43.886 43.886v0c0 42.701 16.941 83.604 47.135 113.798z" />
<glyph unicode="&#xe910;" glyph-name="telegram" d="M1010.652 897.65l0.042-0.036c-6.948 6.149-16.085 9.883-26.092 9.883-5.136 0-10.044-0.984-14.277-2.679l-945.475-367.661c-14.559-5.782-24.851-19.998-24.851-36.615 0-15.346 8.777-28.642 21.809-35.244l195.461-97.711 99.92-299.869c5.299-15.493 19.985-26.634 37.274-26.634 12.828 0 24.224 6.133 31.486 15.725l130.36 173.722 230.394-230.473c7.129-7.139 16.983-11.555 27.868-11.555 18.372 0 33.806 12.58 38.217 29.869l209.974 839.899c0.807 3.143 1.237 6.437 1.237 9.831 0 11.749-5.145 22.297-13.347 29.55zM540.332 317.843l-0.867 0.906-24.261 24.261 182.189 182.189c6.84 7.075 11.056 16.726 11.056 27.36 0 21.752-17.633 39.383-39.383 39.383-10.635 0-20.286-4.215-27.372-11.066l0.011 0.010-210.073-210.034c-7.137-7.129-11.551-16.981-11.551-27.864s4.414-20.735 11.55-27.864v0l28.356-28.356-91.922-122.562-81.249 243.746c-3.417 10.025-10.468 18.051-19.547 22.66l-0.225 0.103-130.556 65.298 791.455 307.784-174.705-698.824-212.908 212.869z" />
<glyph unicode="&#xe911;" glyph-name="whatsapp" d="M793.256 777.475c-75.093 64.242-173.366 103.338-280.769 103.338-239.19 0-433.091-193.902-433.091-433.091 0-93.328 29.52-179.762 79.733-250.472l-0.903 1.34c4.497-6.312 7.189-14.183 7.189-22.68 0-5.665-1.197-11.051-3.351-15.919l0.099 0.251-57.404-132.172 192.843 34.371c2.082 0.391 4.476 0.614 6.924 0.614 6.293 0 12.243-1.477 17.519-4.102l-0.228 0.103c55.508-27.735 120.928-43.97 190.137-43.97 239.19 0 433.091 193.902 433.091 433.091 0 131.539-58.641 249.382-151.208 328.812l-0.581 0.486zM503.795 959.767c2.489 0.043 5.427 0.069 8.369 0.069 282.679 0 511.836-229.157 511.836-511.836s-229.157-511.836-511.836-511.836c-77.309 0-150.617 17.141-216.327 47.828l3.145-1.32-252.729-45.042c-2.069-0.386-4.45-0.606-6.882-0.606-21.745 0-39.372 17.628-39.372 39.372 0 5.673 1.199 11.064 3.359 15.936l-0.099-0.251 78.035 179.733c-50.724 78.085-80.885 173.594-80.885 276.147 0 279.694 224.342 506.99 502.898 511.76l0.448 0.006zM334.18 652.784c11.875 11.86 28.271 19.193 46.381 19.193 36.241 0 65.622-29.373 65.634-65.612v-52.484c0-0.009 0-0.020 0-0.032 0-28.386-18.021-52.564-43.247-61.716l-0.457-0.145c21.768-73.773 78.682-130.701 150.869-152.086l1.578-0.401c9.287 25.703 33.474 43.743 61.875 43.743 0.006 0 0.013 0 0.019 0h52.482c35.55-0.898 64.026-29.93 64.026-65.613s-28.476-64.715-63.942-65.612l-0.084-0.001h-52.522c-166.698 0.023-301.825 135.164-301.825 301.864v0 52.482c0 17.402 6.89 34.096 19.214 46.381z" />
<glyph unicode="&#xe912;" glyph-name="broadcast" d="M227.565 804.526c79.897 54.039 178.397 86.266 284.423 86.266 282.776 0 512.011-229.236 512.011-512.011 0-141.387-57.307-269.388-149.962-362.043v0c-7.128-7.123-16.973-11.529-27.845-11.529-21.756 0-39.394 17.638-39.394 39.394 0 10.883 4.413 20.736 11.548 27.865v0c78.405 78.402 126.901 186.714 126.901 306.355 0 239.272-193.968 433.24-433.24 433.24s-433.24-193.968-433.24-433.24c0-119.639 48.495-227.953 126.901-306.353v0c7.135-7.129 11.548-16.983 11.548-27.865 0-21.756-17.638-39.394-39.394-39.394-10.874 0-20.718 4.406-27.846 11.529v0c-92.662 92.657-149.976 220.664-149.976 362.059 0 176.741 89.55 332.565 225.753 424.576l1.813 1.154zM344.226 629.812c47.069 31.772 105.074 50.717 167.504 50.717 166.773 0 301.968-135.196 301.968-301.968 0-83.275-33.709-158.676-88.226-213.305l0.005 0.005c-7.171-7.419-17.212-12.024-28.33-12.024-21.753 0-39.385 17.634-39.385 39.385 0 11.116 4.606 21.157 12.012 28.318l0.011 0.010c40.36 40.38 65.321 96.153 65.321 157.756 0 123.246-99.911 223.159-223.159 223.159s-223.159-99.911-223.159-223.159c0-61.603 24.961-117.376 65.322-157.757l-0.001 0.001c7.419-7.171 12.024-17.212 12.024-28.33 0-21.753-17.634-39.385-39.385-39.385-11.116 0-21.157 4.606-28.318 12.012l-0.010 0.011c-54.639 54.639-88.434 130.122-88.434 213.497 0 104.225 52.81 196.116 133.131 250.374l1.069 0.68zM447.061 443.754c16.631 16.631 39.607 26.918 64.986 26.918 50.758 0 91.905-41.147 91.905-91.905 0-25.379-10.287-48.355-26.918-64.986v0c-16.631-16.631-39.607-26.918-64.986-26.918-50.758 0-91.905 41.147-91.905 91.905 0 25.379 10.287 48.355 26.918 64.986v0zM512.047 391.924c-7.254 0-13.136-5.88-13.136-13.136s5.88-13.136 13.136-13.136v0c7.254 0 13.136 5.88 13.136 13.136s-5.88 13.136-13.136 13.136v0z" />
<glyph unicode="&#xe913;" glyph-name="twitter" d="M862.652 825.226c-3.845-1.054-7.755-2.125-11.739-3.226-68.199 57.369-157.681 54.088-233.285 25.78-91.075-34.104-152.721-118.263-152.184-216.253-116.609 9.744-218.802 68.86-287.957 165.455-9.262 12.937-24.491 20.247-40.378 19.382s-30.231-9.787-38.033-23.653l40.565-22.823c-40.565 22.823-40.591 22.777-40.591 22.777l-0.029-0.054-0.073-0.13-0.199-0.358-0.598-1.096c-0.484-0.896-1.139-2.125-1.938-3.669-1.598-3.086-3.779-7.44-6.349-12.934-5.133-10.969-11.865-26.577-18.604-45.771-13.386-38.128-27.289-91.784-27.884-152.046-0.598-60.619 12.302-128.697 53.361-193.569 29.758-47.015 73.161-90.536 133.589-127.878-58.382-29.965-116.521-46.401-181.965-43.85-21.601 0.838-40.938-13.303-46.682-34.145-5.744-20.839 3.615-42.891 22.596-53.234 161.819-88.199 342.367-120.864 502.297-74.44 181.22 52.643 330.807 189.076 387.941 392.465l0.065 0.224c16.096 58.419 24.431 118.691 24.799 179.264 1.453 3.157 3.518 7.4 6.247 12.816 3.649 7.258 7.712 15.123 12.241 23.886 4.073 7.883 8.522 16.493 13.382 26.040 18.507 36.34 42.095 84.366 51.055 119.316 1.112 4.001 1.699 8.188 1.699 12.465v0.047c0 23.522-17.547 43.347-40.899 46.201-9.915 1.212-19.549-0.798-27.787-5.26-30.39-14.671-59.066-22.526-92.663-31.73zM136.462 575.688c0.387 39.249 8.098 75.865 17.16 105.471 93.719-95.032 220.474-147.541 359.572-143.984 25.232 0.645 45.354 21.287 45.354 46.53v46.546l-0.004 0.638c-0.787 57.306 34.732 108.37 91.732 129.712 64.726 24.237 118.393 17.144 152.71-21.585 11.976-13.515 30.687-18.883 48.007-13.771 9.695 2.86 19.898 5.645 30.483 8.533 4.022 1.098 8.103 2.212 12.227 3.349-1.783-3.556-3.588-7.127-5.409-10.702-4.17-8.192-8.541-16.655-12.697-24.702l-0.033-0.066c-4.892-9.478-9.486-18.375-13.102-25.558-3.473-6.903-6.726-13.556-9.183-19.148-1.21-2.752-2.55-5.975-3.677-9.248l-0.065-0.193c-0.67-1.935-3.244-9.381-3.244-18.282v-0.258c0.302-54.714-6.907-109.21-21.435-161.961-47.988-170.674-172.25-283.96-324.258-328.123-88.244-25.614-187.649-22.486-287.92 6.805 48.977 18.157 94.65 43.953 138.947 73.462 14.176 9.44 22.061 25.87 20.56 42.841-1.501 16.966-12.15 31.753-27.763 38.563-88.247 38.47-139.541 85.68-169.027 132.268-29.553 46.692-39.396 96.237-38.934 142.864z" />
<glyph unicode="&#xe914;" glyph-name="user" d="M360.178 698.92c40.267 40.265 94.879 62.887 151.822 62.887s111.557-22.621 151.822-62.887c40.267-40.267 62.887-94.879 62.887-151.822s-22.621-111.557-62.887-151.822c-40.267-40.267-94.879-62.887-151.822-62.887s-111.557 22.621-151.822 62.887c-40.265 40.267-62.887 94.879-62.887 151.822s22.621 111.557 62.887 151.822zM512 629.677c-21.902 0-42.906-8.7-58.393-24.187s-24.187-36.491-24.187-58.393c0-21.902 8.7-42.906 24.187-58.393s36.491-24.187 58.393-24.187c21.902 0 42.906 8.7 58.393 24.187s24.187 36.491 24.187 58.393c0 21.902-8.7 42.906-24.187 58.393s-36.491 24.187-58.393 24.187zM201.967 758.033c-45.881-45.881-69.838-131.187-69.838-310.033 0-178.843 23.955-264.153 69.838-310.034s131.187-69.836 310.033-69.836c178.843 0 264.153 23.955 310.034 69.836s69.836 131.191 69.836 310.034c0 178.847-23.955 264.153-69.836 310.033s-131.191 69.838-310.034 69.838c-178.847 0-264.153-23.955-310.033-69.838zM108.536 851.464c87.899 87.899 225.561 108.536 403.463 108.536 177.905 0 315.563-20.638 403.462-108.536s108.538-225.561 108.538-403.463c0-177.905-20.638-315.563-108.538-403.462s-225.557-108.538-403.462-108.538c-177.901 0-315.563 20.638-403.463 108.538s-108.536 225.557-108.536 403.462c0 177.901 20.638 315.563 108.536 403.463zM412.904 183.742c-35.043 0-68.651-13.919-93.429-38.701s-38.7-58.387-38.7-93.428v-2.477c0-36.488-29.578-66.065-66.065-66.065s-66.065 29.577-66.065 66.065v2.477c0 70.087 27.842 137.302 77.399 186.857 49.558 49.562 116.774 77.401 186.859 77.401h198.194c70.087 0 137.302-27.84 186.857-77.401 49.562-49.555 77.401-116.769 77.401-186.857v-2.477c0-36.488-29.577-66.065-66.065-66.065s-66.065 29.577-66.065 66.065v2.477c0 35.041-13.919 68.647-38.701 93.428s-58.387 38.701-93.428 38.701h-198.194z" />
<glyph unicode="&#xe915;" glyph-name="logo" d="M749.21 754.461c-64.717 50.115-145.744 80.246-233.794 80.949h-6.635c-202.724-1.717-368.368-159.088-383.044-358.533-0.703-9.523-1.015-19.124-1.015-28.804 0-41.606 6.557-81.805 18.735-119.357 1.015-3.197 2.108-6.4 3.279-9.597 10.538-29.975 24.746-58.237 41.919-84.309 69.318-104.909 188.282-174.074 323.405-174.074 43.636 0 85.479 7.185 124.584 20.531l-24.98 36.608-136.995 200.539c-2.186 3.356-4.371 6.793-6.401 10.229-21.623 36.454-33.956 78.996-33.956 124.427 0 74.47 33.254 141.134 85.711 186.019l0.078-0.078c-29.273-25.37-47.851-62.839-47.851-104.68 0-59.248 37.235-109.753 89.536-129.58 1.561-0.469 3.044-0.937 4.527-1.64 0.079-0.078 0.156-0.078 0.234-0.078 16.315-6.947 27.71-23.025 27.71-41.918 0-9.21-2.731-17.874-7.492-24.98l0.154-0.080c-4.915-7.259-7.805-16.003-7.805-25.446 0-18.893 11.474-35.049 27.79-41.916l-0.080-0.080 80.174-34.736c5.069-2.031 10.689-3.123 16.549-3.123 25.213 0 45.585 20.372 45.585 45.511v338.859c0 25.136 20.372 45.587 45.585 45.587 8.511 0 16.395-2.342 23.108-6.323 2.344-1.327 4.528-2.888 6.48-4.606 13.346-9.914 25.68-21.155 36.841-33.566-26.072 54.252-64.631 101.635-111.935 138.246zM512 960c-282.345 0-512-229.655-512-512s229.655-512 512-512c282.345 0 512 229.655 512 512s-229.734 512-512 512zM512-1.553c-247.842 0-449.551 201.631-449.551 449.553s201.631 449.551 449.551 449.551c247.922 0 449.553-201.631 449.553-449.551 0-247.922-201.711-449.553-449.553-449.553z" />
<glyph unicode="&#xe916;" glyph-name="question" d="M165.39 794.609c-57.24-57.239-81.8-158.231-81.8-346.609s24.56-289.37 81.8-346.609c57.239-57.24 158.231-81.798 346.609-81.798s289.37 24.56 346.609 81.798c57.24 57.24 81.798 158.231 81.798 346.609s-24.56 289.37-81.798 346.609c-57.24 57.24-158.231 81.8-346.609 81.8s-289.37-24.56-346.609-81.8zM106.281 853.717c83.822 83.821 217.932 106.282 405.717 106.282s321.895-22.461 405.717-106.282c83.821-83.822 106.283-217.932 106.283-405.717s-22.461-321.895-106.283-405.717c-83.821-83.821-217.932-106.283-405.717-106.283s-321.895 22.461-405.717 106.283c-83.821 83.821-106.282 217.932-106.282 405.717s22.461 321.895 106.282 405.717zM511.999 280.817c23.084 0 41.795-18.711 41.795-41.795v-0.418c0-23.084-18.711-41.795-41.795-41.795s-41.795 18.711-41.795 41.795v0.418c0 23.084 18.711 41.795 41.795 41.795zM484.091 643.697c32.137 6.432 65.503 1.801 94.676-13.128 29.291-14.938 52.696-39.309 66.438-69.18 13.751-29.884 17.028-63.53 9.3-95.504-7.728-31.978-26.006-60.416-51.885-80.721-25.88-20.308-57.85-31.3-90.747-31.201-23.084 0.067-41.738 18.838-41.671 41.922 0.071 23.079 18.838 41.738 41.922 41.667 14.098-0.042 27.798 4.669 38.891 13.375 11.093 8.702 18.926 20.89 22.239 34.594 3.31 13.704 1.905 28.124-3.987 40.931s-15.928 23.256-28.493 29.655l-0.080 0.042c-12.388 6.344-26.557 8.313-40.204 5.584s-25.968-9.998-34.958-20.622c-14.913-17.617-41.286-19.811-58.908-4.898-17.617 14.917-19.811 41.286-4.894 58.908 21.182 25.024 50.209 42.147 82.359 48.579z" />
<glyph unicode="&#xe917;" glyph-name="arrow-left-long" d="M1024 448.021c0-29.002-23.51-52.513-52.513-52.513h-918.975c-29.002 0-52.513 23.511-52.513 52.513s23.511 52.513 52.513 52.513h918.975c29.003 0 52.513-23.511 52.513-52.513zM15.38 410.862c-20.507 20.508-20.507 53.757 0 74.265l393.846 393.846c20.508 20.507 53.757 20.507 74.265 0s20.507-53.757 0-74.265l-393.846-393.846c-20.508-20.507-53.757-20.507-74.265 0zM483.491 17.027c-20.508-20.506-53.757-20.506-74.265 0l-393.846 393.848c-20.507 20.507-20.507 53.757 0 74.264s53.757 20.507 74.265 0l393.846-393.844c20.507-20.512 20.507-53.757 0-74.269z" />
<glyph unicode="&#xe918;" glyph-name="jet" d="M230.003 959.9c-1.028 0.056-2.058 0.084-3.088 0.084-60.182 0-117.899-23.907-160.453-66.462s-66.462-100.271-66.462-160.453c0-1.029 0.028-2.060 0.084-3.088 6.108-112.029 45.299-219.731 112.616-309.485 59.836-79.784 139.506-142.202 230.803-181.237 7.025-54.018 25.108-106.151 53.273-153.094 34.742-57.903 83.676-105.987 142.177-139.717 16.52-9.52 36.716-10.109 53.763-1.565 17.041 8.549 28.653 25.085 30.9 44.021 10.523 88.509 50.511 170.901 113.537 233.926s145.419 103.013 233.926 113.537c18.936 2.246 35.472 13.858 44.021 30.906 8.544 17.041 7.953 37.237-1.565 53.757-33.725 58.503-81.814 107.437-139.717 142.179-46.943 28.165-99.077 46.248-153.094 53.273-39.035 91.297-101.453 170.967-181.234 230.803-89.756 67.317-197.459 106.508-309.488 112.616zM225.48 846.518c89.029-5.18 174.572-36.477 245.936-89.999 71.804-53.853 126.031-127.79 155.814-212.461 7.761-22.062 28.268-37.1 51.64-37.872 48.208-1.592 95.214-15.451 136.575-40.267 17.626-10.577 33.981-22.997 48.815-36.999-77.775-24.553-149.009-67.536-207.332-125.864-58.329-58.323-101.312-129.551-125.861-207.332-14.006 14.834-26.424 31.189-37.001 48.815-24.816 41.361-38.674 88.367-40.267 136.575-0.773 23.373-15.81 43.88-37.872 51.64-84.67 29.788-158.607 84.010-212.461 155.815-53.523 71.364-84.819 156.908-89.999 245.936 0.374 29.572 12.283 57.852 33.222 78.791s49.22 32.848 78.792 33.222zM744.83 363.863c-15.401-27.286-5.769-61.891 21.512-77.293 49.201-27.775 88.984-69.612 114.252-120.146 18.255-36.505 28.33-76.346 29.771-116.771-40.425 1.441-80.266 11.516-116.771 29.766-50.534 25.267-92.372 65.056-120.151 114.257-15.401 27.281-50.006 36.913-77.287 21.512-27.281-15.408-36.913-50.006-21.512-77.293 38.888-68.88 97.46-124.577 168.212-159.953s150.45-48.815 228.889-38.598c25.517 3.324 45.604 23.406 48.928 48.928 10.216 78.433-3.222 158.137-38.598 228.889-35.376 70.746-91.073 129.325-159.953 168.212-27.286 15.401-61.891 5.769-77.293-21.512zM420.599 699.838c-21.277 21.277-50.136 33.23-80.226 33.23s-58.949-11.953-80.227-33.23c-21.277-21.277-33.23-50.136-33.23-80.227s11.953-58.949 33.23-80.226c21.278-21.277 50.136-33.231 80.227-33.231s58.949 11.954 80.226 33.231c21.277 21.277 33.231 50.136 33.231 80.226s-11.954 58.95-33.231 80.227z" />
<glyph unicode="&#xe919;" glyph-name="user-square" d="M398.219 737.326c30.176 30.177 71.107 47.131 113.781 47.131s83.605-16.954 113.781-47.131c30.181-30.177 47.133-71.106 47.133-113.783s-16.952-83.605-47.133-113.781c-30.176-30.181-71.107-47.133-113.781-47.133s-83.605 16.952-113.781 47.133c-30.18 30.176-47.133 71.103-47.133 113.781s16.954 83.606 47.133 113.783zM512 696.685c-19.398 0-38.005-7.706-51.721-21.423s-21.422-32.32-21.422-51.719c0-19.399 7.706-38.002 21.422-51.719s32.323-21.423 51.721-21.423c19.398 0 38.005 7.706 51.721 21.423s21.422 32.32 21.422 51.719c0 19.399-7.706 38.002-21.422 51.719s-32.323 21.423-51.721 21.423zM160.914 872.228c-19.399 0-38.002-7.706-51.719-21.423s-21.423-32.32-21.423-51.719v-117.028c0-24.237-19.648-43.886-43.886-43.886s-43.886 19.648-43.886 43.886v117.028c0 42.678 16.954 83.606 47.131 113.783s71.106 47.131 113.783 47.131h117.028c24.237 0 43.886-19.648 43.886-43.886s-19.648-43.886-43.886-43.886h-117.028zM43.886 257.828c24.237 0 43.886-19.648 43.886-43.886v-117.028c0-19.398 7.706-38.005 21.423-51.721s32.32-21.422 51.719-21.422h117.028c24.237 0 43.886-19.648 43.886-43.886s-19.648-43.886-43.886-43.886h-117.028c-42.678 0-83.606 16.952-113.783 47.133-30.177 30.176-47.131 71.107-47.131 113.781v117.028c0 24.237 19.648 43.886 43.886 43.886zM702.172 916.114c0 24.237 19.648 43.886 43.886 43.886h117.028c42.675 0 83.605-16.954 113.781-47.131 30.181-30.177 47.133-71.106 47.133-113.783v-117.028c0-24.237-19.648-43.886-43.886-43.886s-43.886 19.648-43.886 43.886v117.028c0 19.399-7.706 38.002-21.422 51.719s-32.323 21.423-51.721 21.423h-117.028c-24.237 0-43.886 19.648-43.886 43.886zM980.114 257.828c24.237 0 43.886-19.648 43.886-43.886v-117.028c0-42.675-16.952-83.605-47.133-113.781-30.176-30.181-71.107-47.133-113.781-47.133h-117.028c-24.237 0-43.886 19.648-43.886 43.886s19.648 43.886 43.886 43.886h117.028c19.398 0 38.005 7.706 51.721 21.422s21.422 32.323 21.422 51.721v117.028c0 24.237 19.648 43.886 43.886 43.886zM394.972 287.086c-19.399 0-38.002-7.706-51.719-21.422s-21.423-32.323-21.423-51.721c0-24.237-19.648-43.886-43.886-43.886s-43.886 19.648-43.886 43.886c0 42.675 16.954 83.605 47.131 113.781 30.177 30.181 71.106 47.133 113.783 47.133h234.058c42.675 0 83.605-16.952 113.781-47.133 30.181-30.176 47.133-71.107 47.133-113.781 0-24.237-19.648-43.886-43.886-43.886s-43.886 19.648-43.886 43.886c0 19.398-7.706 38.005-21.422 51.721s-32.323 21.422-51.721 21.422h-234.058z" />
<glyph unicode="&#xe91a;" glyph-name="mobile-tick" d="M223.179 881.232c-17.409 0-34.105-6.916-46.415-19.226s-19.226-29.006-19.226-46.415v-735.18c0-17.408 6.916-34.107 19.226-46.416s29.006-19.225 46.415-19.225h183.794c21.751 0 39.385-17.633 39.385-39.385s-17.633-39.385-39.385-39.385h-183.794c-38.3 0-75.031 15.214-102.113 42.299-27.082 27.081-42.297 63.814-42.297 102.111v735.18c0 38.3 15.215 75.031 42.297 102.113s63.813 42.297 102.113 42.297h420.102c38.298 0 75.030-15.215 102.111-42.297 27.086-27.082 42.299-63.813 42.299-102.113v-498.871c0-21.751-17.633-39.385-39.385-39.385s-39.385 17.633-39.385 39.385v498.871c0 17.409-6.916 34.105-19.225 46.415s-29.008 19.226-46.416 19.226h-420.102zM341.333 868.103c0 21.751 17.633 39.385 39.385 39.385h105.025c21.751 0 39.385-17.633 39.385-39.385s-17.633-39.385-39.385-39.385h-105.025c-21.751 0-39.385 17.633-39.385 39.385zM433.232 224.821c21.751 0 39.385-17.633 39.385-39.385v-0.436c0-21.751-17.633-39.385-39.385-39.385s-39.385 17.633-39.385 39.385v0.436c0 21.751 17.633 39.385 39.385 39.385zM933.695 213.284c15.381-15.381 15.381-40.314 0-55.695l-210.052-210.052c-7.383-7.388-17.403-11.537-27.847-11.537s-20.464 4.149-27.847 11.537l-105.025 105.025c-15.381 15.381-15.381 40.314 0 55.695s40.314 15.381 55.695 0l77.178-77.173 182.204 182.198c15.381 15.381 40.314 15.381 55.695 0z" />
<glyph unicode="&#xe91b;" glyph-name="close" d="M1007.339 943.338c22.215-22.216 22.215-58.236 0-80.453l-910.223-910.223c-22.217-22.215-58.237-22.215-80.453 0s-22.216 58.237 0 80.452l910.224 910.224c22.215 22.216 58.237 22.216 80.452 0zM16.662 943.338c22.216 22.216 58.236 22.216 80.453 0l910.223-910.224c22.215-22.215 22.215-58.237 0-80.452s-58.237-22.215-80.452 0l-910.224 910.223c-22.216 22.217-22.216 58.237 0 80.453z" />
<glyph unicode="&#xe91c;" glyph-name="map-google" d="M391.297 699.976c32.006 32.006 75.416 49.987 120.679 49.987s88.674-17.981 120.678-49.987c32.007-32.006 49.987-75.416 49.987-120.677 0-45.264-17.979-88.674-49.987-120.682-32.004-32.004-75.414-49.987-120.678-49.987-45.263 0-88.673 17.983-120.679 49.987-32.006 32.007-49.987 75.417-49.987 120.682 0 45.262 17.981 88.672 49.987 120.677zM511.976 671.194c-24.373 0-47.747-9.682-64.98-26.916s-26.916-40.608-26.916-64.979c0-24.375 9.682-47.749 26.916-64.984 17.234-17.231 40.608-26.916 64.98-26.916s47.746 9.685 64.98 26.916c17.234 17.234 26.916 40.609 26.916 64.984 0 24.372-9.68 47.745-26.916 64.979s-40.609 26.916-64.98 26.916zM627.813 938.799c17.065-13.49 19.96-38.257 6.471-55.321l-384.075-485.848c-13.49-17.062-38.257-19.96-55.321-6.471s-19.961 38.258-6.472 55.324l384.078 485.844c13.49 17.064 38.258 19.961 55.32 6.472zM223.085 820.907c14.244 16.439 39.118 18.218 55.556 3.973l154.229-133.644c16.439-14.244 18.218-39.118 3.973-55.556s-39.118-18.218-55.556-3.973l-154.229 133.644c-16.439 14.244-18.217 39.118-3.973 55.556zM836.153 762.169c16.691-13.944 18.921-38.782 4.974-55.475l-437.744-524.023c-13.944-16.691-38.782-18.921-55.475-4.974-16.693 13.942-18.922 38.782-4.976 55.473l437.744 524.023c13.946 16.693 38.782 18.922 55.476 4.976zM600.386 868.079c-28.814 8.825-58.789 13.258-88.924 13.15h-0.222c-42.401 0.086-84.301-9.163-122.724-27.093s-72.427-44.099-99.597-76.652l-0.188-0.225-0.001 0.001c-44.324-52.306-68.502-118.728-68.171-187.288l-0.002-0.564c-0.457-47.991 9.49-95.512 29.155-139.292l0.139-0.312h-0.001c15.799-36.009 39.488-70.955 66.107-105.692 12.127-15.825 24.542-31.205 36.937-46.556 1.166-1.446 2.332-2.891 3.499-4.337 13.267-16.439 26.536-32.969 38.51-49.109 28.417-36.124 54.296-74.173 77.448-113.876 0.346-0.595 0.675-1.193 0.99-1.804 15.558-30.203 28.499-61.672 38.687-94.061 9.929 31.48 22.437 62.153 37.361 91.616 0.382 0.756 0.791 1.501 1.221 2.23 33.666 57.009 71.995 111.143 114.566 161.799l0.134 0.161c39.617 46.639 74.7 96.945 104.767 150.24 22.158 46.402 33.567 97.213 33.374 148.642v0.378c0.279 47.208-10.957 93.767-32.784 135.712l-0.031 0.062c-17.557 33.885-41.649 63.957-70.888 88.484-29.212 24.502-62.979 42.985-99.359 54.383zM511.29 959.998c38.057 0.126 75.914-5.486 112.298-16.644l0.213-0.065v-0.001c46.347-14.501 89.363-38.034 126.566-69.243 37.199-31.201 67.847-69.458 90.187-112.563 27.707-53.248 41.984-112.366 41.665-172.311 0.209-63.718-14.052-126.65-41.712-184.050-0.362-0.749-0.749-1.489-1.154-2.21-32.662-58.068-70.817-112.872-113.942-163.65-39.471-46.982-75.043-97.157-106.318-149.987-15.085-29.964-27.305-61.349-36.423-93.573-0.173-0.615-0.362-1.221-0.563-1.828-3.663-10.893-9.5-25.348-20.65-37.132-12.903-13.631-29.999-20.74-49.344-20.74-14.59 0-31.727 3.434-46.435 17.286-12.305 11.591-18.913 27.050-23.536 40.011-0.3 0.839-0.571 1.69-0.812 2.548-9.311 33.035-21.888 65.063-37.544 95.605-21.275 36.392-45.038 71.266-71.12 104.38-0.241 0.303-0.477 0.615-0.708 0.925-10.961 14.801-23.381 30.295-36.863 47.002-1.178 1.457-2.362 2.926-3.555 4.403-12.298 15.234-25.334 31.381-38.102 48.041-27.896 36.403-56.056 77.201-75.646 121.792-24.243 54.032-36.522 112.663-35.999 171.882-0.352 87.191 30.408 171.649 86.752 238.195 34.565 41.377 77.809 74.644 126.667 97.443 48.869 22.803 102.156 34.576 156.083 34.482z" />
<glyph unicode="&#xe91d;" glyph-name="phone-ring" d="M874.022 815.195c15.087 0 29.556-5.993 40.225-16.662 10.379-10.38 16.334-24.358 16.651-39.003-11.925-189.794-92.697-368.737-227.191-503.231s-313.438-215.266-503.232-227.191c-14.644 0.313-28.624 6.268-39.003 16.647-10.669 10.671-16.662 25.14-16.662 40.227v175.356l192.523 77.008 57.183-95.3c12.462-20.772 38.772-28.514 60.5-17.799 121.493 59.92 219.825 158.252 279.742 279.745 10.715 21.724 2.976 48.038-17.797 60.5l-95.304 57.183 77.008 192.521h175.358zM980.071 864.358c-28.126 28.126-66.275 43.928-106.050 43.928h-206.87c-19.034 0-36.147-11.588-43.217-29.259l-103.433-258.587c-8.487-21.209-0.323-45.444 19.266-57.199l91.030-54.617c-44.147-73.641-105.783-135.277-179.42-179.42l-54.62 91.028c-11.751 19.593-35.986 27.753-57.199 19.27l-258.586-103.433c-17.671-7.068-29.259-24.185-29.259-43.217v-206.87c0-39.778 15.801-77.926 43.928-106.052s66.275-43.926 106.052-43.926c0.941 0 1.884 0.027 2.824 0.083 213.082 12.949 414.060 103.437 565.009 254.387s241.434 351.927 254.384 565.009c0.058 0.941 0.087 1.881 0.087 2.824 0 39.776-15.801 77.924-43.93 106.051zM403.395 706.589c0 25.706-20.84 46.545-46.545 46.545-39.778 0-77.926-15.801-106.052-43.93-28.126-28.126-43.926-66.275-43.926-106.050 0-25.708 20.837-46.545 46.545-46.545 25.706 0 46.545 20.837 46.545 46.545 0 15.087 5.992 29.556 16.66 40.225 10.671 10.669 25.14 16.663 40.227 16.663 25.706 0 46.545 20.84 46.545 46.545zM403.395 913.452c0 25.707-20.84 46.545-46.545 46.545-94.643 0-185.408-37.596-252.33-104.519s-104.519-157.687-104.519-252.33c0-25.706 20.839-46.545 46.545-46.545s46.545 20.84 46.545 46.545c0 69.952 27.788 137.040 77.253 186.506s116.553 77.253 186.506 77.253c25.706 0 46.545 20.839 46.545 46.545z" />
<glyph unicode="&#xe91e;" glyph-name="send-email" d="M192.843 737.344c-15.115 0-29.611-6.004-40.299-16.692s-16.692-25.185-16.692-40.299v-455.933c0-15.113 6.004-29.609 16.692-40.298s25.183-16.693 40.299-16.693h319.154c18.886 0 34.194-15.308 34.194-34.194 0-18.882-15.308-34.194-34.194-34.194h-319.154c-33.254 0-65.145 13.21-88.659 36.725-23.513 23.512-36.724 55.402-36.724 88.657v455.933c0 33.254 13.21 65.145 36.724 88.659s55.405 36.724 88.659 36.724h638.305c33.255 0 65.145-13.21 88.661-36.724 23.512-23.513 36.722-55.405 36.722-88.659v-341.952c0-18.882-15.308-34.194-34.194-34.194s-34.194 15.312-34.194 34.194v341.952c0 15.115-6.004 29.611-16.693 40.299-10.686 10.688-25.181 16.692-40.298 16.692h-638.305zM73.208 699.323c10.475 15.714 31.706 19.96 47.42 9.483l391.372-260.917 391.372 260.917c15.713 10.475 36.945 6.229 47.422-9.483 10.474-15.714 6.227-36.945-9.485-47.42l-410.341-273.562c-11.486-7.657-26.45-7.657-37.937 0l-410.339 273.562c-15.714 10.475-19.96 31.706-9.483 47.42zM614.581 133.238c0 18.886 15.308 34.194 34.194 34.194h273.56c18.886 0 34.194-15.308 34.194-34.194s-15.308-34.194-34.194-34.194h-273.56c-18.886 0-34.194 15.308-34.194 34.194zM761.377 294.197c13.353 13.353 35.006 13.353 48.359 0l136.781-136.781c13.353-13.353 13.353-35.006 0-48.359l-136.781-136.781c-13.353-13.353-35.006-13.353-48.359 0s-13.353 35.006 0 48.359l112.601 112.601-112.601 112.601c-13.353 13.353-13.353 35.006 0 48.359z" />
<glyph unicode="&#xe91f;" glyph-name="dribbble" d="M316.065 921.025c62.117 25.73 128.697 38.974 195.935 38.974s133.817-13.243 195.935-38.974c62.117-25.73 118.56-63.444 166.104-110.988 47.542-47.544 85.255-103.985 110.985-166.104s38.975-128.697 38.975-195.935c0-67.237-13.244-133.817-38.975-195.935s-63.445-118.56-110.985-166.104c-47.545-47.542-103.987-85.255-166.104-110.985s-128.697-38.975-195.935-38.975c-67.237 0-133.817 13.244-195.935 38.975s-118.56 63.445-166.104 110.985c-47.544 47.545-85.257 103.987-110.988 166.104s-38.974 128.697-38.974 195.935c0 67.237 13.243 133.817 38.974 195.935s63.444 118.56 110.988 166.104c47.544 47.544 103.985 85.257 166.104 110.988zM512 881.23c-56.891 0-113.227-11.206-165.789-32.978s-100.321-53.683-140.551-93.913c-40.229-40.229-72.14-87.988-93.913-140.551s-32.978-108.899-32.978-165.789c0-56.891 11.206-113.227 32.978-165.789s53.683-100.32 93.913-140.552c40.229-40.227 87.988-72.14 140.551-93.913s108.899-32.977 165.789-32.977c56.891 0 113.227 11.205 165.789 32.977s100.32 53.685 140.552 93.913c40.227 40.231 72.14 87.989 93.913 140.552s32.977 108.899 32.977 165.789c0 56.891-11.205 113.227-32.977 165.789s-53.685 100.321-93.913 140.551c-40.231 40.229-87.989 72.14-140.552 93.913s-108.899 32.978-165.789 32.978zM329.248 919.37c16.711 13.925 41.547 11.667 55.469-5.043 266.244-319.489 375.689-563.142 402.825-872.477 1.903-21.67-14.123-40.775-35.792-42.677s-40.775 14.123-42.677 35.792c-25.376 289.307-125.98 518.273-384.866 828.935-13.926 16.709-11.665 41.544 5.041 55.469zM274.375 81.212c-9.34-9.405-18.83-18.96-28.526-28.657-15.381-15.379-40.317-15.379-55.698 0-15.381 15.383-15.381 40.318 0 55.701 9.602 9.602 19.125 19.203 28.617 28.775 79.735 80.407 157.344 158.669 262.43 216.773 119.040 65.823 270.611 104.751 498.703 102.065 21.748-0.256 39.172-18.093 38.916-39.845-0.256-21.748-18.093-39.172-39.845-38.916-218.265 2.568-355.512-34.65-459.658-92.235-94.638-52.33-164.182-122.352-244.938-203.662zM878.953 801.542c13.989-16.655 11.832-41.499-4.824-55.489-299.228-251.35-563.199-271.791-829.513-271.791-21.751 0-39.384 17.632-39.384 39.384s17.633 39.384 39.384 39.384c258.811 0 500.435 19.467 778.848 253.337 16.656 13.991 41.5 11.83 55.489-4.826z" />
<glyph unicode="&#xe920;" glyph-name="leap" d="M1018.942 862.428c15.151 57.556-37.377 110.079-94.935 94.935l-784.395-206.421c-58.006-15.268-77.587-87.698-35.176-130.109l210.891-210.891-279.556-279.557c-44.469-44.471-44.469-116.568 0-161.038 44.469-44.461 116.566-44.461 161.035 0l279.556 279.56 206.056-206.053c42.413-42.414 114.839-22.829 130.105 35.178l206.419 784.395z" />
<glyph unicode="&#xe921;" glyph-name="service" d="M716.583 932.444l299.744-496.907c21.99-36.461-5.901-81.972-50.413-82.26l-73.107-0.471c-21.946 23.805-48.39 44.636-79.002 61.284-58.099 31.601-122.56 43.434-184.599 37.715v111.178c0 79.481-64.051 144.869-146.186 152.858l132.744 216.594c22.522 36.749 78.643 36.755 100.819 0.010zM391.109 307.392c39.021 63.67 99.688 108.226 168.189 130.182l-0.006 125.409c0 42.436-31.962 77.843-74.437 86.031-6.068 1.17-12.349 1.784-18.784 1.784l-372.85-0.008c-51.488 0-93.221-39.317-93.221-87.816v-351.262c0-48.499 41.733-87.814 93.221-87.814h259.020c-8.553 61.357 3.483 125.76 38.868 183.494zM451.598 274.502c-66.143-107.923-26.891-245.926 87.671-308.237 114.563-62.304 261.052-25.331 327.196 82.592 66.138 107.923 26.886 245.926-87.674 308.232-114.56 62.309-261.052 25.332-327.194-82.588z" />
<glyph unicode="&#xe922;" glyph-name="copy" d="M390.816 663.188c-24.932 0-48.845-9.905-66.473-27.534-17.63-17.629-27.535-41.542-27.535-66.474v-450.127c0-12.346 2.432-24.572 7.156-35.978 4.725-11.402 11.649-21.767 20.378-30.497 8.73-8.726 19.094-15.654 30.499-20.378 11.402-4.723 23.627-7.155 35.974-7.155h450.127c12.346 0 24.572 2.431 35.978 7.155 11.402 4.723 21.767 11.647 30.497 20.378s15.654 19.095 20.378 30.497c4.723 11.407 7.155 23.632 7.155 35.978v450.127c0 12.346-2.431 24.572-7.155 35.974-4.723 11.407-11.647 21.771-20.378 30.5s-19.091 15.654-30.497 20.378c-11.407 4.725-23.632 7.156-35.978 7.156h-450.127zM261.38 698.616c34.329 34.329 80.891 53.614 129.437 53.614h450.127c24.042 0 47.843-4.734 70.050-13.934 22.211-9.199 42.39-22.682 59.388-39.681s30.48-37.177 39.682-59.385c9.199-22.209 13.931-46.014 13.931-70.051v-450.127c0-24.037-4.733-47.843-13.931-70.050-9.202-22.211-22.684-42.39-39.682-59.388s-37.175-30.48-59.388-39.682c-22.208-9.199-46.009-13.931-70.050-13.931h-450.127c-24.037 0-47.843 4.733-70.050 13.931-22.209 9.202-42.388 22.684-59.387 39.682s-30.481 37.175-39.681 59.388c-9.199 22.208-13.934 46.009-13.934 70.050v450.127c0 48.551 19.286 95.109 53.614 129.437zM148.41 870.957c-32.548 0-59.362-26.814-59.362-59.362v-519.358c0.033-10.481 2.829-20.77 8.105-29.825 5.285-9.070 12.869-16.584 21.988-21.784 21.362-12.176 28.806-39.366 16.628-60.727s-39.367-28.806-60.727-16.625c-22.738 12.96-41.651 31.695-54.826 54.311-13.176 22.613-20.148 48.306-20.211 74.48v519.527c0 81.725 66.681 148.406 148.406 148.406h519.42c27.821 0 52.255-7.385 73.056-22.484 19.839-14.399 33.392-33.686 43.769-52.343 11.95-21.489 4.216-48.598-17.275-60.548s-48.596-4.217-60.549 17.272c-7.386 13.289-13.312 19.972-18.25 23.558-3.976 2.885-9.616 5.5-20.752 5.5h-519.42z" />
<glyph unicode="&#xe923;" glyph-name="arrow-up-left" d="M1003.127-43.162c-12.88-12.876-30.67-20.839-50.321-20.839s-37.441 7.964-50.321 20.839l-880.719 880.789c-13.406 12.961-21.73 31.105-21.73 51.196 0 39.31 31.866 71.176 71.176 71.176 20.089 0 38.234-8.324 51.176-21.71l880.738-880.811c12.876-12.88 20.839-30.67 20.839-50.321s-7.964-37.441-20.839-50.321v0zM0.911 887.878c0 39.31 31.866 71.176 71.176 71.176v0h754.881c39.31 0 71.176-31.866 71.176-71.176s-31.866-71.176-71.176-71.176v0h-754.881c-39.31 0-71.176 31.866-71.176 71.176v0zM72.087 61.607c-39.31 0-71.176 31.866-71.176 71.176v0 754.953c0 39.31 31.866 71.176 71.176 71.176s71.176-31.866 71.176-71.176v0-754.881c0-39.31-31.866-71.176-71.176-71.176v0z" />
<glyph unicode="&#xe924;" glyph-name="add-heart" d="M306.528 877.648c-31.146 3.321-62.645 0.159-92.507-9.289-29.865-9.448-57.449-24.977-81.017-45.61s-42.608-45.922-55.921-74.275c-13.313-28.352-20.612-59.154-21.437-90.467-0.825-31.311 4.843-62.456 16.645-91.469s29.486-55.272 51.934-77.116l0.175-0.171h-0.002l382.017-378.349c10.902-10.798 10.988-28.389 0.191-39.29s-28.389-10.988-39.29-0.191l-381.842 378.179c-0.030 0.030-0.061 0.057-0.091 0.087-27.903 27.177-49.884 59.832-64.562 95.912-14.693 36.12-21.749 74.892-20.722 113.872s10.114 77.327 26.687 112.623 40.278 66.779 69.616 92.463c29.339 25.686 63.678 45.018 100.858 56.781 37.177 11.761 76.389 15.698 115.162 11.562s76.272-16.256 110.132-35.595c23.912-13.658 45.646-30.709 64.544-50.573 43.766 45.001 101.556 74.394 164.4 82.946 74.229 10.102 149.431-9.697 209.062-55.042s98.807-112.521 108.908-186.75-9.696-149.43-55.041-209.062c-9.289-12.214-26.718-14.586-38.931-5.297-12.215 9.287-14.586 26.718-5.299 38.931 36.425 47.9 52.328 108.307 44.214 167.935-8.114 59.625-39.582 113.588-87.483 150.012s-108.307 52.33-167.935 44.216c-59.625-8.114-113.586-39.583-150.012-87.483-5.286-6.953-13.534-11.015-22.267-10.967-8.735 0.048-16.936 4.201-22.146 11.21-18.685 25.14-42.373 46.138-69.572 61.674-27.197 15.536-57.32 25.272-88.464 28.594zM662.821 142.095c0 15.344 12.439 27.783 27.783 27.783h305.613c15.344 0 27.783-12.439 27.783-27.783s-12.439-27.783-27.783-27.783h-305.613c-15.344 0-27.783 12.439-27.783 27.783zM843.411 322.686c15.344 0 27.783-12.439 27.783-27.783v-305.613c0-15.344-12.439-27.783-27.783-27.783s-27.783 12.439-27.783 27.783v305.613c0 15.344 12.439 27.783 27.783 27.783z" />
<glyph unicode="&#xe925;" glyph-name="qoute" d="M658.298 492.055c3.476 90.855 15.565 140.020 34.584 173.476 22.162 38.985 57.942 64.733 133.519 109.126 28.090 16.501 37.484 52.649 20.987 80.739-16.503 28.090-52.65 37.486-80.739 20.985-73.227-43.012-136.569-82.6-176.328-152.546-39.149-68.859-51.033-158.777-51.033-290.77v-250.965c0-94.65 77.808-170.62 171.897-170.62h140.918c100.557 0 171.897 77.635 171.897 170.62v139.328c0 92.988-71.34 170.625-171.897 170.625h-193.805zM153.595 665.532c-19.019-33.456-31.108-82.621-34.582-173.476h193.804c100.56 0 171.899-77.636 171.899-170.625v-139.328c0-92.985-71.337-170.62-171.899-170.62h-140.918c-94.090 0-171.899 75.97-171.899 170.62v250.965c0 131.994 11.888 221.912 51.033 290.77 39.763 69.944 103.105 109.534 176.328 152.546 28.090 16.501 64.239 7.105 80.739-20.985s7.105-64.239-20.985-80.739c-75.574-44.392-111.356-70.14-133.52-109.126z" />
<glyph unicode="&#xe926;" glyph-name="attachment" d="M722.94 658.847c22.216-22.219 22.216-58.24 0-80.458l-341.355-341.355c-22.219-22.216-58.24-22.216-80.458 0s-22.217 58.241 0 80.457l341.355 341.355c22.216 22.217 58.241 22.217 80.457 0zM523.105 780.949l-24.907-28.834c-20.539-23.779-56.466-26.403-80.246-5.864-23.776 20.54-26.402 56.466-5.86 80.245l26.342 30.494c0.904 1.048 1.843 2.063 2.828 3.042 64.021 64.016 150.856 99.974 241.388 99.969 90.539-0.007 177.368-35.978 241.383-100.002s99.972-150.856 99.966-241.394c-0.005-90.536-35.978-177.366-100-241.38-0.939-0.939-1.912-1.843-2.914-2.714l-30.381-26.398c-23.719-20.607-59.652-18.086-80.258 5.632-20.612 23.719-18.092 59.652 5.627 80.258l28.794 25.022c41.856 42.544 65.341 99.858 65.347 159.589 0.005 60.36-23.968 118.249-66.644 160.933-42.681 42.684-100.569 66.666-160.926 66.67-59.702 0.004-116.994-23.452-159.538-65.265zM213.321 542.501c20.805-23.541 18.582-59.498-4.963-80.304l-28.548-25.226c-20.753-20.795-37.254-45.44-48.578-72.561-11.517-27.582-17.446-57.172-17.446-87.063s5.93-59.481 17.446-87.068c11.517-27.582 28.39-52.603 49.644-73.619l0.001-0.005c43.327-42.84 101.801-66.871 162.733-66.871 59.57 0 116.786 22.968 159.803 64.027l19.861 26.716c18.747 25.215 54.389 30.461 79.604 11.714s30.461-54.383 11.714-79.598l-22.587-30.381c-1.719-2.309-3.607-4.488-5.655-6.514-64.629-63.907-151.852-99.749-242.741-99.749s-178.11 35.842-242.738 99.749c-31.957 31.598-57.326 69.222-74.641 110.696-17.316 41.469-26.231 85.964-26.231 130.904s8.915 89.435 26.231 130.904c17.314 41.475 42.685 79.097 74.641 110.696 0.756 0.745 1.533 1.473 2.331 2.179l29.811 26.342c23.545 20.803 59.5 18.581 80.305-4.967z" />
<glyph unicode="&#xe927;" glyph-name="play" d="M903.158 571.183c94.827-54.748 94.827-191.617 0-246.365l-640.077-369.549c-94.827-54.748-213.359 13.686-213.359 123.183v739.097c0 109.495 118.532 177.93 213.359 123.183l640.077-369.548z" />
<glyph unicode="&#xe928;" glyph-name="replay" d="M251.613 889.674c98.353 56.821 212.661 79.727 325.314 65.19s217.403-65.707 298.111-145.634c80.711-79.924 132.903-184.169 148.537-296.674 3.338-24.008-13.421-46.173-37.426-49.508-24.008-3.338-46.173 13.421-49.508 37.426-12.987 93.438-56.331 180.015-123.362 246.393s-154.025 108.877-247.584 120.948c-93.561 12.073-188.493-6.952-270.176-54.141-61.843-35.725-113.49-86.098-150.679-146.247h133.102c24.237 0 43.885-19.648 43.885-43.885s-19.648-43.885-43.885-43.885h-203.818c-0.664-0.015-1.33-0.015-1.997 0h-28.24c-24.237 0-43.885 19.648-43.885 43.885v234.056c0 24.237 19.648 43.885 43.885 43.885s43.885-19.648 43.885-43.885v-117.435c42.92 60.722 98.68 111.867 163.842 149.509zM37.851 432.954c24.007 3.335 46.172-13.421 49.508-37.429 12.985-93.435 56.331-180.013 123.362-246.391s154.023-108.877 247.584-120.951c93.561-12.071 188.493 6.952 270.176 54.142 61.84 35.725 113.49 86.095 150.676 146.247h-133.099c-24.237 0-43.885 19.646-43.885 43.885 0 24.237 19.648 43.885 43.885 43.885h203.816c0.667 0.015 1.332 0.015 1.998 0h28.242c24.237 0 43.885-19.648 43.885-43.885v-234.056c0-24.24-19.648-43.885-43.885-43.885s-43.885 19.646-43.885 43.885v117.435c-42.92-60.722-98.68-111.867-163.842-149.512-98.353-56.819-212.661-79.725-325.314-65.19s-217.403 65.709-298.114 145.632c-80.708 79.928-132.9 184.169-148.536 296.678-3.337 24.005 13.421 46.173 37.427 49.508zM439.589 520.407c19.204 19.201 45.249 29.992 72.408 29.992s53.204-10.79 72.408-29.992c19.201-19.204 29.992-45.249 29.992-72.408s-10.79-53.204-29.992-72.408c-19.204-19.201-45.249-29.992-72.408-29.992s-53.204 10.79-72.408 29.992c-19.201 19.204-29.992 45.249-29.992 72.408s10.79 53.204 29.992 72.408zM511.997 462.628c-3.88 0-7.6-1.541-10.345-4.283-2.741-2.744-4.283-6.466-4.283-10.345s1.541-7.6 4.283-10.345c2.744-2.741 6.466-4.283 10.345-4.283s7.6 1.541 10.345 4.283c2.741 2.744 4.283 6.466 4.283 10.345s-1.541 7.6-4.283 10.345c-2.744 2.741-6.466 4.283-10.345 4.283z" />
<glyph unicode="&#xe929;" glyph-name="home" d="M475.795 945.003c19.993 19.994 52.413 19.994 72.407 0l460.799-460.799c14.644-14.644 19.026-36.665 11.1-55.797s-26.593-31.606-47.304-31.606h-102.399c-28.278 0-51.2 22.922-51.2 51.2 0 21.954 13.819 40.683 33.234 47.959l-340.433 340.433-340.431-340.433c19.415-7.276 33.234-26.004 33.234-47.959 0-28.278-22.924-51.2-51.2-51.2h-102.399c-20.708 0-39.378 12.473-47.303 31.606s-3.545 41.154 11.099 55.797l460.798 460.799zM153.599 499.2c28.277 0 51.2-22.922 51.2-51.2v-358.399c0-13.578 5.394-26.604 14.996-36.204s22.625-14.996 36.204-14.996h511.999c13.578 0 26.604 5.396 36.204 14.996s14.996 22.625 14.996 36.204v358.399c0 28.278 22.922 51.2 51.2 51.2s51.2-22.922 51.2-51.2v-358.399c0-40.74-16.184-79.806-44.989-108.611s-67.871-44.989-108.611-44.989h-511.999c-40.737 0-79.806 16.184-108.612 44.989s-44.988 67.875-44.988 108.611v358.399c0 28.278 22.924 51.2 51.2 51.2zM460.799 345.601c-13.578 0-26.604-5.396-36.204-14.996s-14.996-22.625-14.996-36.204v-307.199c0-28.278-22.924-51.2-51.2-51.2s-51.2 22.922-51.2 51.2v307.199c0 40.74 16.183 79.806 44.988 108.611s67.872 44.989 108.612 44.989h102.399c40.74 0 79.806-16.184 108.611-44.989s44.989-67.871 44.989-108.611v-307.199c0-28.278-22.922-51.2-51.2-51.2s-51.2 22.922-51.2 51.2v307.199c0 13.578-5.396 26.604-14.996 36.204s-22.625 14.996-36.204 14.996h-102.399z" />
<glyph unicode="&#xe92a;" glyph-name="ai" d="M818.779 832.789c96.726 0 145.107-0.011 175.161-30.062 30.039-30.055 30.059-78.43 30.059-175.16v-359.137c0-96.731-0.020-145.107-30.059-175.161-30.055-30.050-78.435-30.059-175.161-30.059h-569.117c-137.317 0-205.962 0.015-236.485 45.093-30.522 45.082-5.056 108.834 45.944 236.335l92.089 230.122c49.982 124.956 74.947 187.472 127.060 222.757 52.116 35.284 119.436 35.272 254.020 35.272h286.488zM398.066 672.711l-185.080-434.744h74.854l49.351 117.193h204.016l49.356-117.193h74.901l-185.129 434.744h-82.268zM707.051 506.47l55.112-43.689v-224.814h72.397v319.658h-123.405l-4.104-51.155zM529.685 403.459h-181.771l91.288 208.177 90.483-208.177zM745.731 596.004h88.779l0.051 88.782h-88.83v-88.782z" />
<glyph unicode="&#xe20ba;" glyph-name="triangle" d="M441.356 857.861c31.56 54.099 109.728 54.099 141.288 0l430.091-737.301c31.805-54.527-7.516-122.996-70.636-122.996h-860.192c-63.12 0-102.447 68.469-70.643 122.996l430.092 737.301z" />
<glyph unicode="&#xe21ba;" glyph-name="square" d="M853.333 960h-682.666c-94.257 0-170.667-76.41-170.667-170.667v-682.666c0-94.259 76.41-170.667 170.667-170.667h682.666c94.259 0 170.667 76.407 170.667 170.667v682.666c0 94.257-76.407 170.667-170.667 170.667z" />
<glyph unicode="&#xe22ba;" glyph-name="circle" d="M1024 448c0 282.77-229.23 512-512 512s-512-229.23-512-512c0-282.77 229.23-512 512-512s512 229.23 512 512z" />
</font>
</defs>
</svg>
